Главная » Видеорегистраторы Smurf » Модель Smurf ACR3
— запись видео 1280x720
— ЖК-экран 2"
— аккумулятор
— угол обзора 120°
— микрофон
— microSD (microSDHC)
— артикул 1982016




Smurfs 2011
















Downloadlinks:
Version 1:
Version 2:
Version 3:

Complete name : The.Smurfs.2011.R5.DVDRip.Clear.AC3-5.1.HQ.Hive-CM8.avi
Format : AVI
Format/Info : Audio Video Interleave
File size : 1.55 GiB
Duration : 1h 38mn
Overall bit rate : 2 253 Kbps
Writing application : Nandub v1.0rc2
Writing library : Nandub build 1853/release

ID : 0
Format : MPEG-4 Visual
Format profile : Advanced Simple@L5
Format settings, BVOP : 2
Format settings, QPel : Yes
Format settings, GMC : No warppoints
Format settings, Matrix : Default (H.263)
Muxing mode : Packed bitstream
Codec ID : XVID
Codec ID/Hint : XviD
Duration : 1h 38mn
Bit rate : 1 795 Kbps
Width : 720 pixels
Height : 400 pixels
Display aspect ratio : 16:9
Frame rate : 25.000 fps
Color space : YUV
Chroma subsampling : 4:2:0
Bit depth : 8 bits
Scan type : Progressive
Compression mode : Lossy
Bits/(Pixel*Frame) : 0.249
Stream size : 1.24 GiB (80%)
Writing library : XviD 1.2.1 (UTC 2008-12-04)

ID : 1
Format : AC-3
Format/Info : Audio Coding 3
Mode extension : CM (complete main)
Codec ID : 2000
Duration : 1h 38mn
Bit rate mode : Constant
Bit rate : 448 Kbps
Channel(s) : 6 channels
Channel positions : Front: L C R, Side: L R, LFE
Sampling rate : 48.0 KHz
Bit depth : 16 bits
Compression mode : Lossy
Stream size : 316 MiB (20%)
Alignment : Split accross interleaves
Interleave, duration : 40 ms (1.00 video frame)
Interleave, preload duration : 500 ms? Counter Strike: Global Offensive (CS:GO)
?? Unterst?tzt mich indem ihr das Video bewertet/kommentiert.
??? Playlist:
? Mehr Informationen unten in der Beschreibung ?
------------------------------­------------------------------­------------------------
?? ABONNIEREN & FOLLOWEN ??
Werdet ein Teil der CaptainCL Crew und heuert hier an:
• Youtube:
• Steam Group:
• Google+:
------------------------------­------------------------------­------------------------
?? Ihr wollt mich unterst?tzen? ??
• Trading Link f?r CS:GO:
• Keys, skins und vieles mehr k?nnt ihr mir hier spenden
------------------------------­------------------------------­------------------------
?? Topdonator ??
Wenn ihr spendet, egal ob Keys, Skins und/oder Kisten werdet ihr hier aufgef?hrt.
01. MeisterMiko - 5 Keys + 2 Kisten + 1 Skin
02. In_Your_Face - 16 Kisten
03. ImStormiix - 4 Skins (1x Nova Antique) + 2 Kisten
04. Twized - 8 Kisten + 1 Skin
05. Joker ;-) - 7 Kisten + 1 Skin
06. FIRE - 8 Kisten
07. DeNite - 2 Kisten + 5 Skins
08. Mr.BOOOM-HeaDShOT - 5 Kisten + 2 Skins
09. [CCL]Blubbinio - 5 Kisten + 1 Skin
10. Waterice - 4 Kisten
11. H3iper - 4 Kisten
12. Dotello | TryHarder - 4 Kisten
13. xFjunex - 2 Kisten
14. oG. Oafish #Sw4q - 2 Kisten
15. Snu - 1 Skin
16. x[Energy - 1 Kiste
17. BlAcKShArKHD - 1 Kiste
18. $NS$ TheLucky - 1 Kiste
19. NDA mumbaydi - 1 Kiste
20. JayRoss2000 - 1 Kiste
------------------------------­------------------------------­------------------------
?? Unterst?tzt von... ??
• Unterst?tzt vom Clan EKS (European Killer Syndicate):

• Intro/Outro:
• ...
------------------------------­------------------------------­------------------------
?? Sonstige Informationen ??
• Downloadlink f?r Counter-Strike: Global Offensive

• Downloadlink f?r VibranceGUI

------------------------------­------------------------------­------------------------
Ausschlie?lich bei Urheberrechtsangelegenheiten oder sonstigen gesch?ftlichen Fragen an folgenden Kontakt wenden.
? Email: captaincl (at) gmx (dot) de
Всего просмотров: 2829
Ключевые слова: Smurf ACR3 купить, цена Smurf ACR3, Smurf ACR3 обзор, Smurf ACR3 доставка, продажа Smurf ACR3, Smurf ACR3 купить в интернет магазине
Оценка Smurf ACR3 на iVideoReg.ru: 1 из 5 на основе 50 оценок.

Инструкция по эксплуатации Smurf ACR3
Поддерживаемые карты памяти Smurf ACR3
Прошивки Smurf ACR3
Программное обеспечение, драйвера Smurf ACR3
Схемы подключения Smurf ACR3





CYCLON
DVR-33

Eplutus
DVR-774

Dixon
GS950
  • Инструкция по эксплуатации Smurf ACR3
  • Smurf ACR3 в Википедии
  • Улучшение качества видео Smurf ACR3


  • Neoline Cubex V10
    Subini DVR-HD202
    RecordEYE DC606